Ogłoszenie 
Prosimy o zapoznanie się z nową wersją regulaminu forum (ver 003) oraz zasadami przetwarzania danych osobowych
Regulamin oraz zasady przetwarzania w dziale REGULAMIN

Poprzedni temat «» Następny temat
Przesunięty przez: jacekp1313
2015-08-05, 21:02
Modecom MX3 HD - multimedia
Autor Wiadomość
shakalinho 
azymut


Dołączył: 01 Kwi 2013
Posty: 2
Wysłany: 2013-04-01, 16:15   Modecom MX3 HD - multimedia

Witam,
Jestem od paru dni posiadaczem nawigacji Modecom MX3 HD. Z tego co wyczytałem w instrukcji i sam przetestowałem teraz, nawigacja ta nie odtwarza w OEM-owym odtwarzaczu formatu mp3. Czy ktoś zna sposób na odblokowanie tego (podobno jest taka możliwość) lub ma zna jakiś dobry player na Win CE6?
Nie jestem ekstra biegły w nawigacjach, tj. odblokowana / nieodblokowana, ale standardowo moge się wbić na pulpit Windows CE, więc pewnie można tam instalować soft jaki się chce.
Pozdr
Ostatnio zmieniony przez jacekp1313 2013-12-22, 18:01, w całości zmieniany 1 raz  
 
 
jestem_ktoś 
Maestro GPS


Pomógł: 259 razy
Dołączył: 28 Paź 2009
Posty: 9608
Wysłany: 2013-04-01, 16:21   

W innych wersjach było tak:
http://www.my-navia.pl/vi...p=386359#386359
http://www.my-navia.pl/vi...p=388564#388564
_________________
Nie pomagam na PW
SITE:MY-NAVIA.PL xxx w googlach prawdę Ci powie
 
 
jabusan 
Waypoint


Dołączył: 25 Mar 2013
Posty: 33
Wysłany: 2013-04-02, 11:44   

Dziwne moja MX3 (nie HD) na oryginalnym odtwarzaczu mp3 czyta bezproblemowo...
 
 
 
arsstudio 
azymut


Dołączył: 05 Lis 2011
Posty: 1
Wysłany: 2013-04-03, 10:59   

Dokładnie. Moja kupiona jakieś dwa tygodnie temu odtwarza bez problemu mp3.
 
 
bbb_mmm
azymut


Dołączył: 15 Lis 2008
Posty: 3
Wysłany: 2013-04-08, 20:33   

Witam
Moja też...... The Beatles 14 - Twist And Shout.mp3 ......nawet jak na mój słuch może być
......a ma ktoś patent na skrzący zestaw głośnomówiący...?

Pozdrawiam
 
 
Obiezyswiat
azymut


Dołączył: 22 Gru 2013
Posty: 2
  Wysłany: 2013-12-22, 17:23   Odtwarzanie wideo w nawigacji, potrzebna fachowa pomoc ;)

Witam wszystkich forumowiczów !

Zakupiłem sobie niedawno GPS firmy Modecom z AM na święta, dokładnie to model MX3 HD :)
Wszystko wydaje się, że działa w porządku jednak podczas odtwarzania Video obraz strasznie ścina, lecz co nastawia mnie pozytywnie to fakt, że dźwięki chodzą bezbłędnie.
Swoje próby testowałem przy rożnych filmikach na wszystkich zalecanych formatach typu AVI, WMV, ASF oraz innymi jak MP4 i MPEG.
Dodam, że konwersji dokonywałem na programach FormatFactory oraz Pazera Video Converters.
Więc jak myślicie, zdając się na waszym doświadczeniu, istnieje jeszcze jakieś wyjście z tej sytuacji czy to winna wadliwej sztuki mojej nawigacji ?
 
 
jacekp1313 
Maestro GPS
Navit.T700+NaviExpert


Pomógł: 527 razy
Dołączył: 25 Wrz 2008
Posty: 18778
Wysłany: 2013-12-22, 18:11   

1. Scaliłem z istniejącym wątkiem
2. Jakie parametry po konwersji (rozdzielczość, FPS, kodek)? Zobacz dwa wątki w dziale http://www.my-navia.pl/viewforum.php?f=59
3. Spróbuj podmienić odtwarzacz na inny http://www.my-navia.pl/viewforum.php?f=56
_________________

 
 
Obiezyswiat
azymut


Dołączył: 22 Gru 2013
Posty: 2
Wysłany: 2013-12-22, 20:41   

1. Nie wiem w czym to przeszkadzało, ale cóż nie ja tu rządzę :D
2. Rozdzielczość też przyszła mi na myśl i zmieniałem ją na zalecaną 800x480 lub pozostawiałem ją na oryginalną, efekty przy odtwarzaniu wideo były takie same. FPSy domyślnie 24, a co do kodeków pozostawiałem je w domyślnych ustawieniach.
3. Przekopałem się przez forum i znalazłem jedynie aktywny link z TCPMP 0.81, a reszta to same odtwarzacze mp3. Zainstalowałem go na WIN CE 6.0 ale jednak z nim również występują te same problemy ;/

Przekopałem forum z Twoich poleconych linków i dotarłem do konwertera PocketDivXEncoder w końcu mogłem zobaczyć płynnie działający filmik. Jednak jego jakość nie powala. Przesyłam jego parametry:
Cytat:
General
Complete name: C:\Movie5.avi
Format : AVI
Format/Info : Audio Video Interleave
File size : 16.7 MiB
Duration : 1mn 49s
Overall bit rate : 1 277 Kbps
Writing application : MEncoder SVN-r22963
Writing library : MPlayer

Video
ID : 0
Format : MPEG-4 Visual
Format profile : Simple@L1
Format settings, BVOP : No
Format settings, QPel : No
Format settings, GMC : No warppoints
Format settings, Matrix : Default (H.263)
Codec ID : XVID
Codec ID/Hint : XviD
Duration : 1mn 49s
Bit rate : 1 078 Kbps
Width : 320 pixels
Height : 176 pixels
Display aspect ratio : 16:9
Frame rate : 29.970 fps
Color space : YUV
Chroma subsampling : 4:2:0
Bit depth : 8 bits
Scan type : Progressive
Compression mode : Lossy
Bits/(Pixel*Frame) : 0.639
Stream size : 14.1 MiB (84%)
Writing library : Lavc51.40.2

Audio
ID : 1
Format : MPEG Audio
Format version : Version 1
Format profile : Layer 3
Codec ID : 55
Codec ID/Hint : MP3
Duration : 1mn 49s
Bit rate mode : Constant
Bit rate : 192 Kbps
Channel(s) : 2 channels
Sampling rate : 44.1 KHz
Compression mode : Lossy
Stream size : 2.51 MiB (15%)
Alignment : Split accross interleaves
Interleave, duration : 498 ms (14.93 video frames)
Interleave, preload duration : 500 ms
Writing library : LAME3.97



Szkoda również, że owy program ogranicza rozdzielczość do 320x240 jeżeli producent oferuje odtwarzanie wideo przy 800x480. Jakiego konwertera użyć przy tych samych ustawienia z większą rozdzielczością ?
 
 
tikotka
Maestro GPS


Pomógł: 148 razy
Dołączył: 05 Paź 2007
Posty: 2408
Skąd: Kraków
Wysłany: 2013-12-23, 09:19   

Używaj pocketDivxEncodera, tylko w ustawieniu nie wskazuj "PDA" a Home Cinema. W tej opcji można ustawić dowolną rozdzielczość (najlepiej coś poniżej 800x480 pikseli) i jakość (tu trzeba poeksperymentować).
 
 
 
Wyświetl posty z ostatnich:   
Odpowiedz do tematu
Nie możesz pisać nowych tematów
Nie możesz odpowiadać w tematach
Nie możesz zmieniać swoich postów
Nie możesz usuwać swoich postów
Nie możesz głosować w ankietach
Nie możesz załączać plików na tym forum
Możesz ściągać załączniki na tym forum
Dodaj temat do Ulubionych
Wersja do druku

Skocz do:  

Powered by phpBB modified by Przemo © 2003 phpBB Group
Nasi znajomi:
Strona wygenerowana w 0,08 sekundy. Zapytań do SQL: 11